Sie sind nicht angemeldet.

Lieber Besucher, herzlich willkommen bei: GentooForum.de. Falls dies Ihr erster Besuch auf dieser Seite ist, lesen Sie sich bitte die Hilfe durch. Dort wird Ihnen die Bedienung dieser Seite näher erläutert. Darüber hinaus sollten Sie sich registrieren, um alle Funktionen dieser Seite nutzen zu können. Benutzen Sie das Registrierungsformular, um sich zu registrieren oder informieren Sie sich ausführlich über den Registrierungsvorgang. Falls Sie sich bereits zu einem früheren Zeitpunkt registriert haben, können Sie sich hier anmelden.

1

10.07.2011, 14:39

amd64 und wmv

Hallo,
ich hatte das Thema schon vor langer Zeit einmal. Da hat es dann irgendwann geklappt. Jetzt habe ich seit ewiger Zeit wieder einmal von Bekannten *wmv bekommen. Kann ich nicht mehr abspielen. Habe auch keinen mplayer-bin mehr gefunden. media-libs/win32codecs habe ich installiert. Nützt mir nichts, da ich keinen Player habe, der darauf zugreift. Hat jemand eine Idee?

2

10.07.2011, 17:12

ich hab zwar gerade keine *.wmv-datei zum testen, aber erstmal generell:
- was fuer nen player nutzt du?
- beim starten des players aus der konsole, gibt's da ne meldung?
- schon mal nen anderen probiert?

3

10.07.2011, 17:25

Quellcode

1
2
3
4
5
6
7
8
9
10
11
12
13
14
15
16
17
18
19
20
21
22
23
24
25
26
27
mplayer Karibikparty.wmv
MPlayer SVN-r33094-4.4.5 (C) 2000-2011 MPlayer Team
MMX2 supported but disabled

Spiele Karibikparty.wmv.
ASF-Dateiformat erkannt!
[asfheader] Audiostream gefunden, -aid 1
[asfheader] Videostream gefunden, -vid 2
VIDEO:  [WVP2]  640x480  24bpp  1000.000 fps   42.4 kbps ( 5.2 kbyte/s)
Load subtitles in ./
[vdpau] Error when calling vdp_device_create_x11: 1
==========================================================================
Erforderliche Videocodec Familie [wmvadmo] (vfm=dmo) nicht verfügbar.
Aktiviere sie beim Kompilieren.
Kann keinen Codec finden, der zu gewählter Option -vo und Videoformat 0x32505657 passt!
==========================================================================
==========================================================================
Öffne Audiodecoder: [ffmpeg] FFmpeg/libavcodec audio decoders
AUDIO: 44100 Hz, 2 ch, s16le, 111.1 kbit/7.88% (ratio: 13893->176400)
Ausgewählter Audiocodec: [ffwmav2] afm: ffmpeg (DivX audio v2 (FFmpeg))
==========================================================================
[AO OSS] audio_setup: Kann Audiogerät /dev/dsp nicht öffnen: Device or resource busy
[AO_ALSA] alsa-lib: pcm_dmix.c:1018:(snd_pcm_dmix_open) unable to open slave
[AO_ALSA] Fehler beim Öffnen der Wiedergabe: Device or resource busy
AO: [pulse] 44100Hz 2ch s16le (2 bytes per sample)
Video: kein Video
Starte Wiedergabe...
Nur Ton, kein Bild mplayer2 ähnliche Ausgabe.

Quellcode

1
2
3
4
5
6
7
8
9
10
11
12
13
14
15
16
17
18
19
20
21
22
23
24
25
26
27
ffplay Karibikparty.wmv
ffplay version 0.7-rc1, Copyright (c) 2003-2011 the FFmpeg developers
  built on Jul  8 2011 21:28:57 with gcc 4.4.5
  configuration: --prefix=/usr --libdir=/usr/lib64 --shlibdir=/usr/lib64 --mandir=/usr/share/man --enable-shared --cc=x86_64-pc-linux-gnu-gcc --disable-static --enable-gpl --enable-version3 --enable-postproc --enable-avfilter --disable-stripping --disable-debug --disable-doc --enable-runtime-cpudetect --enable-libmp3lame --enable-libvo-aacenc --enable-libtheora --enable-libvorbis --enable-libx264 --enable-libxvid --enable-libfaac --enable-nonfree --disable-indev=v4l --disable-indev=oss --disable-indev=jack --enable-x11grab --disable-outdev=oss --enable-frei0r --enable-libfreetype --enable-libgsm --enable-libdirac --enable-librtmp --enable-libschroedinger --enable-libspeex --enable-libvpx --enable-libopenjpeg --disable-altivec --disable-avx --cpu=nocona --enable-hardcoded-tables
  libavutil    50. 40. 1 / 50. 40. 1
  libavcodec   52.120. 0 / 52.120. 0
  libavformat  52.108. 0 / 52.108. 0
  libavdevice  52.  4. 0 / 52.  4. 0
  libavfilter   1. 77. 0 /  1. 77. 0
  libswscale    0. 13. 0 /  0. 13. 0
  libpostproc  51.  2. 0 / 51.  2. 0
[asf @ 0x692530] max_analyze_duration reached
Input #0, asf, from 'Karibikparty.wmv':                                            
  Metadata:
    WM/ToolName     : Fotostory 3.1
    publisher       : Fotostory 3.1
    WM/ToolVersion  : 10.0.1021.0
    genre           : Photo Story
    WMFSDKVersion   : 11.0.5721.5275
    WMFSDKNeeded    : 0.0.0.0000
    IsVBR           : 1
    VBR Peak        : 626
    Buffer Average  : 681
  Duration: 00:16:14.03, start: 0.000000, bitrate: 463 kb/s
    Stream #0.0(ger): Audio: wmav2, 44100 Hz, 2 channels, s16, 111 kb/s
    Stream #0.1(ger): Video: vc1 (Advanced), yuv420p, 912x688, 42 kb/s, 30 tbr, 1k tbn, 1k tbc
  16.29 A-V: -0.046 s:0.0 aq=  323KB vq=  673KB sq=    0B f=0/0   f=0/0 
Bild ist kein Genuss Ton i.O.

Quellcode

1
2
3
4
5
6
7
vlc Karibikparty.wmv
VLC media player 1.1.10 The Luggage (revision exported)
Blocked: call to unsetenv("DBUS_ACTIVATION_ADDRESS")
Blocked: call to unsetenv("DBUS_ACTIVATION_BUS_TYPE")
Blocked: call to setlocale(6, "")
Blocked: call to setlocale(6, "")
Speicherzugriffsfehler
Vlc: Kein Bild, kein Ton.

Quellcode

1
kaffeine Karibikparty.wmv
Nur Ton, kein Bild.
media-libs/amd64codecs habe ich auch instaliert.

4

10.07.2011, 18:13

Quellcode

13
14
Erforderliche Videocodec Familie [wmvadmo] (vfm=dmo) nicht verfügbar.
Aktiviere sie beim Kompilieren.

win32codecs-useflag vllt nicht aktiviert?

5

10.07.2011, 18:40

Geht bei amd64 System nicht. Da aber ffplay das schon halbwegs hinbekommt, habe ich Hoffnung, das da noch etwas geht.

6

11.07.2011, 13:40

Also ich kann nur sagen ich habe weder media-libs/win32codecs noch media-libs/amd64codecs installiert. Mit wmv hatte ich noch nie Probleme. Hmm, bin da irgendwie ratlos. Kannst du vielleicht mal einen Teil eines solchen Videos (gleichen Codec) hochladen?

lg
boospy
Gentoo Can Do!
>>>> boospy@jabber.ccc.de <<<<
Wiki auf: http://deepdoc.at

7

11.07.2011, 20:45

Kann ich nicht hochladen.

Quellcode

1
2
3
4
5
6
7
8
9
10
11
12
13
14
15
16
17
18
19
20
21
22
23
24
25
26
27
28
29
30
31
32
33
34
35
36
37
38
39
40
41
42
43
44
45
46
47
mediainfo /home/olaf/Downloads/Karibikparty.wmv
General
Complete name                    : /home/olaf/Downloads/Karibikparty.wmv
Format                           : Windows Media
File size                        : 53.8 MiB
Duration                         : 16mn 14s
Overall bit rate mode            : Variable
Overall bit rate                 : 463 Kbps
Maximum Overall bit rate         : 757 Kbps
Publisher                        : Fotostory 3.1
Genre                            : Photo Story
Encoded date                     : UTC 2010-07-03 09:25:22.593
Writing application              : Fotostory 3.1 10.0.1021.0
Cover                            : Y

Video
ID                               : 2
Format                           : WVP2
Codec ID                         : WVP2
Description of the codec         : Windows Media Video 9.1 Image
Duration                         : 16mn 14s
Bit rate mode                    : Variable
Bit rate                         : 42.4 Kbps
Width                            : 640 pixels
Height                           : 480 pixels
Display aspect ratio             : 4:3
Frame rate                       : 30.000 fps
Bit depth                        : 8 bits
Bits/(Pixel*Frame)               : 0.005
Stream size                      : 4.93 MiB (9%)
Language                         : German (DE)

Audio
ID                               : 1
Format                           : WMA
Format version                   : Version 2
Codec ID                         : 161
Codec ID/Info                    : Windows Media Audio
Description of the codec         : Windows Media Audio 9.2 - VBR Quality 75, 44 kHz, stereo 1-pass VBR
Duration                         : 16mn 14s
Bit rate mode                    : Variable
Bit rate                         : 111 Kbps
Channel(s)                       : 2 channels
Sampling rate                    : 44.1 KHz
Bit depth                        : 16 bits
Stream size                      : 12.9 MiB (24%)
Language                         : German (DE)
Welchen Player nimmst du für wmv? Welche Version? Mit welchen USE-Flags kompilliert?

8

11.07.2011, 21:47

ups, da war ja was mit den use-flags...

ich kann zumindestens aeltere wmvs gucken, das sieht im mplayer dann so aus:

Quellcode

1
2
3
4
5
6
7
8
9
10
11
12
13
14
15
16
17
18
19
20
21
22
23
24
25
26
27
28
29
30
31
32
33
MPlayer SVN-r33094-4.5.2 (C) 2000-2011 MPlayer Team

Spiele /media/4543-5CDE/daten/trailer/ef-melo_pv_short.wmv.
ASF-Dateiformat erkannt!
[asfheader] Audiostream gefunden, -aid 1
[asfheader] Videostream gefunden, -vid 2
VIDEO:  [WMV3]  800x450  24bpp  1000.000 fps  960.0 kbps (117.2 kbyte/s)
Clip-Info:
 title: ef - a tale of melodies PV
 copyright: (c)2008 GENEON ENTERTAINMENT
Load subtitles in /media/4543-5CDE/daten/trailer/
==========================================================================
Erforderliche Videocodec Familie [wmv9dmo] (vfm=dmo) nicht verfügbar.
Aktiviere sie beim Kompilieren.
Erforderliche Videocodec Familie [wmvdmo] (vfm=dmo) nicht verfügbar.
Aktiviere sie beim Kompilieren.
Öffne Videodecoder: [ffmpeg] FFmpeg's libavcodec codec family
[wmv3 @ 0xaa6aa0]Extra data: 8 bits left, value: 0
Ausgewählter Videocodec: [ffwmv3] vfm: ffmpeg (FFmpeg WMV3/WMV9)
==========================================================================
==========================================================================
Öffne Audiodecoder: [ffmpeg] FFmpeg/libavcodec audio decoders
AUDIO: 44100 Hz, 2 ch, s16le, 64.0 kbit/4.54% (ratio: 8000->176400)
Ausgewählter Audiocodec: [ffwmav2] afm: ffmpeg (DivX audio v2 (FFmpeg))
==========================================================================
AO: [alsa] 48000Hz 2ch s16le (2 bytes per sample)
Starte Wiedergabe...
Film-Aspekt ist undefiniert - keine Vorskalierung durchgeführt.                                                                                                                                                                     
VO: [xv] 800x450 => 800x450 Planar YV12                                                                                                                                                                                             
A:  52.6 V:  53.2 A-V: -0.611 ct: -0.112 1206/1206  8%  0%  1.4% 1 0 


Beenden... (Dateiende erreicht)

bild sieht i.o. aus, ton auch okay. soweit ich das beurteilen kann.

Zitat

[ebuild R ] media-video/mplayer-1.0_rc4_p20110322
USE="X a52 alsa ass bidi cdparanoia dga dts dvb dvd dvdnav encode faac faad gif iconv ipv6 jpeg mad mmx mmxext mng mp3 network opengl osdmenu png quicktime rar real rtc samba sdl shm sse sse2 theora toolame tremor truetype twolame unicode v4l v4l2 vorbis x264 xscreensaver xv xvid xvmc
-3dnow -3dnowext -aalib (-altivec) -amr (-aqua) -bindist -bl -bluray -bs2b -cddb -cdio -cpudetection -custom-cpuopts -debug -dirac -directfb -doc -dv -dxr3 -enca -esd -fbcon -ftp -ggi -gsm -jack -joystick -jpeg2k -ladspa -libcaca -libmpeg2 -lirc -live -lzo -md5sum -mpg123 -nas -nut -openal -oss -pnm -pulseaudio -pvr -radio -rtmp -schroedinger -speex -ssse3 -tga -vdpau (-vidix) -vpx (-win32codecs) -xanim -xinerama -zoran"
VIDEO_CARDS="-mga -s3virge -tdfx -vesa"
8,129 kB

meine use-flags, etwas geordnet


mein einziger ansatz ist VIDEO: [WVP2] bzw Videoformat 0x32505657.
bisschen googlen danach hat mich darauf gebracht, dass windows photo story zwar nen wmv-codec nutzt, aber einen etwas anderen bzw. neueren. leider bisher keine loesung, aber vllt ein ansatz zum weiter forschen?